Salem 2. Sezon | Wolle Garne | Smarty UninstallerBeauty Therapy | KuschelRock 32 (Exklusive Gold Edition) (2 CDs) Diverse Interpreten | Ventusky
wisehealth-me.site - The Largest Bittorent System Login   |    Register
Latest Articles
Most searched
Hot torrents
Movie Torrents
View Torrent Info: Mission: Impossible - Fallout (2018) [720p] [YTS] [YIFY]
View Torrent Info: Crazy Rich Asians (2018) [720p] [YTS] [YIFY]
View Torrent Info: Kin (2018) [720p] [YTS] [YIFY]
View Torrent Info: Robin Hood The Rebellion (2018) [720p] [YTS] [YIFY]
View Torrent Info: The Miseducation of Cameron Post (2018) [720p] [YTS] [YIFY]
View Torrent Info: Dog Days (2018) [720p] [YTS] [YIFY]
View Torrent Info: Alone We Fight (2018) [720p] [YTS] [YIFY]
View Torrent Info: Patrick (2018) [720p] [YTS] [YIFY]
View Torrent Info: The Veil (2017) [720p] [YTS] [YIFY]
View Torrent Info: Welcome to Mercy (2018) [720p] [YTS] [YIFY]
Hot torrents
TV Torrents
View Torrent Info: Young.Sheldon.S02E08.HDTV.x264-KILLERS[eztv]
View Torrent Info: The.Big.Bang.Theory.S12E08.HDTV.x264-SVA[eztv]
View Torrent Info: Arrow.S07E04.HDTV.x264-SVA
View Torrent Info: The.Big.Bang.Theory.S12E08.XviD-AFG[eztv]
View Torrent Info: Greys.Anatomy.S15E07.HDTV.x264-KILLERS[eztv]
View Torrent Info: Supernatural.S14E05.HDTV.x264-SVA[eztv]
View Torrent Info: The.Last.Ship.S05E09.XviD-AFG
View Torrent Info: Chicago.PD.S06E07.HDTV.x264-SVA[eztv]
View Torrent Info: Legacies.S01E03.HDTV.x264-SVA[eztv]
View Torrent Info: Criminal.Minds.S14E06.XviD-AFG[eztv]
wisehealth-me.site > Categories > TV torrents > HEVC/x265 torrents


Browse TV torrents

Legacies.S01.E03.720p.10bit.2CH.x265.HEVC - ENX265 torrent



Download torrent: Download Legacies.S01.E03.720p.10bit.2CH.x265.HEVC - ENX265 torrent Magnet link Bookmark Torrent: Legacies.S01.E03.720p.10bit.2CH.x265.HEVC - ENX265 Legacies.S01.E03.720p.10bit.2CH.x265.HEVC - ENX265 torrent | if not working, try instead: Magnet Link
Info hash: 0C39216ACF6757E44B99D0D919C8EF833139DB5A
Category: Categories > TV torrents > HEVC/x265 torrents
Trackers:
1    View all torrent trackers >
Health:
 seeds: 0 ,  leechers: 0 |  Update >
Torrent language:  
Total Size: 187.40 MB
Torrent status: Added by trusted uploader Added by trusted uploader Trusted Uploader Site Friend Superman Sun
Uploader: Trusted Uploader Site Friend Superman Sun
Torrent added: 2018-11-09 08:42:37
 

Download Legacies.S01.E03.720p.10bit.2CH.x265.HEVC - ENX265 torrent if not working, try downloading torrent using Download Legacies.S01.E03.720p.10bit.2CH.x265.HEVC - ENX265 via Magnet Link




Torrent Description

Please post your requests at

ENX265.Com




CHECK SAMPLE
http://enx265.com/download-legacies-2018-s01e03-720p-10bit-hdtv-2ch-x265-hevc-esub/

Code:

eneral

Format : Matroska
Format version : Version 4
File size : 187 MiB
Duration : 42 min 13 s
Overall bit rate : 621 kb/s
Encoded date : UTC 2018-11-09 06:27:23 / UTC 2018-11-09T05:34:33Z
Writing application : mkvmerge v9.9.0 ('Pick Up') 64bit
Writing library : libebml v1.3.4 + libmatroska v1.4.5 / Lavf57.7.2

Video
ID : 1
Format : HEVC
Format/Info : High Efficiency Video Coding
Format profile : Main [email protected]@Main
Codec ID : V_MPEGH/ISO/HEVC
Duration : 42 min 13 s
Bit rate : 458 kb/s
Width : 1 280 pixels
Height : 718 pixels
Display aspect ratio : 16:9
Frame rate mode : Constant
Frame rate : 23.976 (24000/1001) FPS
Color space : YUV
Chroma subsampling : 4:2:0
Bit depth : 10 bits
Bits/(Pixel*Frame) : 0.021
Stream size : 138 MiB (74%)
Writing library : x265 2.6:[Windows][GCC 7.3.0][64 bit] 10bit

Default : Yes
Forced : No
Color range : Limited
Color primaries : BT.709
Transfer characteristics : BT.709
Matrix coefficients : BT.709

Audio
ID : 2
Format : AAC LC
Format/Info : Advanced Audio Codec Low Complexity
Codec ID : A_AAC-2
Duration : 42 min 13 s
Bit rate : 160 kb/s
Channel(s) : 2 channels
Channel layout : L R
Sampling rate : 48.0 kHz
Frame rate : 46.875 FPS (1024 SPF)
Compression mode : Lossy
Stream size : 48.4 MiB (26%)
Title : Stereo
Default : Yes
Forced : No



#ENX265 -> To avoid fakes, ALWAYS check that the torrent was added on wisehealth-me.site by ENX265

http://wisehealth-me.site/



Download Legacies.S01.E03.720p.10bit.2CH.x265.HEVC - ENX265 torrent


Comments (please add your comment)
No comments



Home - Browse Torrents - Upload Torrent - Stat - Forum - FAQ - Login
wisehealth-me.site is in compliance with copyrights
2006-2018 wisehealth-me.site
Sitemap