wisehealth-me.site - The Largest Bittorent System Login   |    Register
Latest Articles
Most searched
Hot torrents
Movie Torrents
View Torrent Info: Mission: Impossible - Fallout (2018) [720p] [YTS] [YIFY]
View Torrent Info: Crazy Rich Asians (2018) [720p] [YTS] [YIFY]
View Torrent Info: Kin (2018) [720p] [YTS] [YIFY]
View Torrent Info: Robin Hood The Rebellion (2018) [720p] [YTS] [YIFY]
View Torrent Info: The Miseducation of Cameron Post (2018) [720p] [YTS] [YIFY]
View Torrent Info: Dog Days (2018) [720p] [YTS] [YIFY]
View Torrent Info: Patrick (2018) [720p] [YTS] [YIFY]
View Torrent Info: Alone We Fight (2018) [720p] [YTS] [YIFY]
View Torrent Info: Welcome to Mercy (2018) [720p] [YTS] [YIFY]
View Torrent Info: Bao (2018) [720p] [YTS] [YIFY]
Hot torrents
TV Torrents
View Torrent Info: Young.Sheldon.S02E08.HDTV.x264-KILLERS[eztv]
View Torrent Info: Greys.Anatomy.S15E07.HDTV.x264-KILLERS[eztv]
View Torrent Info: Arrow.S07E04.HDTV.x264-SVA
View Torrent Info: The.Big.Bang.Theory.S12E08.HDTV.x264-SVA[eztv]
View Torrent Info: The.Big.Bang.Theory.S12E08.XviD-AFG[eztv]
View Torrent Info: Supernatural.S14E05.HDTV.x264-SVA[eztv]
View Torrent Info: S.W.A.T.2017.S02E07.XviD-AFG[eztv]
View Torrent Info: The.Last.Ship.S05E09.XviD-AFG
View Torrent Info: Chicago.PD.S06E07.HDTV.x264-SVA[eztv]
View Torrent Info: How.to.Get.Away.with.Murder.S05E07.HDTV.x264-CRAVERS[eztv]
wisehealth-me.site > Categories > Movies torrents > h.264/x264 torrents


Browse Movies torrents

[email protected] torrent



Download torrent: Download The.Predator.2018.HC.HDRip.x264.AC3-iM@X torrent Magnet link Bookmark Torrent: The.Predator.2018.HC.HDRip.x264.AC3-iM@X [email protected] torrent | if not working, try instead: Magnet Link
Info hash: 1135659F335676696F153F602DC9AD70B679CD0E
Category: Categories > Movies torrents > h.264/x264 torrents
Trackers:
1    View all torrent trackers >
Health:
 seeds: 36 ,  leechers: 8 |  Update >
Torrent language:  
Total Size: 823.40 MB
Torrent status: Added by trusted uploader Added by trusted uploader Trusted Uploader Site Friend Superman Sun
Uploader: Trusted Uploader Site Friend Superman Sun
Torrent added: 2018-11-09 10:36:41
 

Download The.Predator.2018.HC.HDRip.x264.AC3-iM@X torrent if not working, try downloading torrent using Download The.Predator.2018.HC.HDRip.x264.AC3-iM@X via Magnet Link




Torrent Description

Language: English

Genre: Action | Adventure | Horror | Sci-Fi | Thriller

When a young boy accidentally triggers the universe's most lethal hunters' return to Earth, only a ragtag crew of ex-soldiers and a disgruntled science teacher can prevent the end of the human race.



Code:

Format : Matroska
Format version : Version 4 / Version 2
File size : 823 MiB
Duration : 1 h 46 min
Overall bit rate : 1 078 kb/s
Movie name : www.SANET.st
Encoded date : UTC 2018-11-09 08:58:53
Writing application : mkvmerge v19.0.0 ('Brave Captain') 64-bit
Writing library : libebml v1.3.5 + libmatroska v1.4.8

Video
ID : 1
Format : AVC
Format/Info : Advanced Video Codec
Format profile : [email protected]
Format settings : CABAC / 4 Ref Frames
Format settings, CABAC : Yes
Format settings, RefFrames : 4 frames
Codec ID : V_MPEG4/ISO/AVC
Duration : 1 h 46 min
Bit rate : 884 kb/s
Width : 720 pixels
Height : 304 pixels
Display aspect ratio : 2.35:1
Frame rate mode : Constant
Frame rate : 24.000 FPS
Color space : YUV
Chroma subsampling : 4:2:0
Bit depth : 8 bits
Scan type : Progressive
Bits/(Pixel*Frame) : 0.168
Stream size : 675 MiB (82%)
Title : www.SANET.st
Writing library : x264 core 155 r2901 7d0ff22
Encoding settings : cabac=1 / ref=3 / deblock=1:0:0 / analyse=0x3:0x113 / me=hex / subme=7 / psy=1 / psy_rd=1.00:0.00 / mixed_ref=1 / me_range=16 / chroma_me=1 / trellis=1 / 8x8dct=1 / cqm=0 / deadzone=21,11 / fast_pskip=1 / chroma_qp_offset=-2 / threads=9 / lookahead_threads=1 / sliced_threads=0 / nr=0 / decimate=1 / interlaced=0 / bluray_compat=0 / constrained_intra=0 / bframes=3 / b_pyramid=2 / b_adapt=1 / b_bias=0 / direct=1 / weightb=1 / open_gop=0 / weightp=2 / keyint=240 / keyint_min=24 / scenecut=40 / intra_refresh=0 / rc_lookahead=40 / rc=2pass / mbtree=1 / bitrate=884 / ratetol=1.0 / qcomp=0.60 / qpmin=0 / qpmax=69 / qpstep=4 / cplxblur=20.0 / qblur=0.5 / ip_ratio=1.40 / aq=1:1.00
Default : Yes
Forced : No

Audio
ID : 2
Format : AC-3
Format/Info : Audio Coding 3
Codec ID : A_AC3
Duration : 1 h 46 min
Bit rate mode : Constant
Bit rate : 192 kb/s
Channel(s) : 2 channels
Channel positions : Front: L R
Sampling rate : 48.0 kHz
Frame rate : 31.250 FPS (1536 SPF)
Bit depth : 16 bits
Compression mode : Lossy
Stream size : 147 MiB (18%)
Title : www.SANET.st
Language : English
Service kind : Complete Main
Default : Yes
Forced : No



#iMaX100 -> To avoid fakes, ALWAYS check that the torrent was added on wisehealth-me.site by iMaX100

http://wisehealth-me.site/



Download The.Predator.2018.HC.HDRip.x264.AC3-iM@X torrent


Comments (please add your comment)
No comments



Home - Browse Torrents - Upload Torrent - Stat - Forum - FAQ - Login
wisehealth-me.site is in compliance with copyrights
2006-2018 wisehealth-me.site
SitemapAvast Premier License File Till 2018 Cracked Version -[Patchlicense] torrent | human trafficking (60) | Re:Creators Silvio Muccino | The Hollow Crown | Kit 5 kg Résine polyester ISO + 100 ml catalyseur + 5 M² MAT 300 g/m²