wisehealth-me.site - The Largest Bittorent System Login   |    Register
Latest Articles
Most searched
Hot torrents
Movie Torrents
View Torrent Info: Smallfoot (2018) [720p] [YTS] [YIFY]
View Torrent Info: The Bouncer (2018) [720p] [YTS] [YIFY]
View Torrent Info: Blood Brother (2018) [720p] [YTS] [YIFY]
View Torrent Info: Down River (2018) [720p] [YTS] [YIFY]
View Torrent Info: Born Racer (2018) [720p] [YTS] [YIFY]
View Torrent Info: The Immortal Wars (2018) [720p] [YTS] [YIFY]
View Torrent Info: I'll Be Next Door for Christmas (2018) [720p] [YTS] [YIFY]
View Torrent Info: Swiped (2018) [720p] [YTS] [YIFY]
View Torrent Info: The Hitman Agency (2018) [720p] [YTS] [YIFY]
View Torrent Info: Time Jumpers (2018) [720p] [YTS] [YIFY]
Hot torrents
TV Torrents
View Torrent Info: The.Flash.2014.S05E08.HDTV.x264-KILLERS[eztv]
View Torrent Info: Arrow.S07E08.HDTV.x264-SVA[eztv]
View Torrent Info: Supergirl.S04E08.HDTV.x264-SVA[eztv]
View Torrent Info: DCs.Legends.of.Tomorrow.S04E07.HDTV.x264-SVA[eztv]
View Torrent Info: The.Good.Doctor.S02E10.HDTV.x264-SVA[eztv]
View Torrent Info: Supernatural.S14E07.HDTV.x264-SVA[eztv]
View Torrent Info: the.gifted.s02e09.web.x264-tbs[eztv]
View Torrent Info: lethal.weapon.s03e09.web.x264-tbs[eztv]
View Torrent Info: Legacies.S01E05.HDTV.x264-SVA[eztv]
View Torrent Info: The.Rookie.S01E07.HDTV.x264-KILLERS[eztv]
wisehealth-me.site > Categories > Movies torrents > h.264/x264 torrents


Browse Movies torrents

[18+] Firends Mother 2 (2018) Korean 720p HDRip x264 850MB -137xHD torrent



Download torrent: Download [18+] Firends Mother 2 (2018) Korean 720p HDRip x264 850MB -137xHD torrent Magnet link Bookmark Torrent: [18+] Firends Mother 2 (2018) Korean 720p HDRip x264 850MB -137xHD [18+] Firends Mother 2 (2018) Korean 720p HDRip x264 850MB -137xHD torrent | if not working, try instead: Magnet Link
Info hash: 40869058E2BC9A0ECCA2C52745EACACDFC930B8C
Category: Categories > Movies torrents > h.264/x264 torrents
Trackers:
0    View all torrent trackers >
Health:
 seeds: 37 ,  leechers: 5 |  Update >
Total Size: 888.20 MB
Torrent status: Added by trusted uploader Added by trusted uploader Trusted Uploader Site Friend Superman Sun
Uploader: Trusted Uploader Site Friend Superman Sun
Torrent added: 2018-12-06 08:16:43
 

Download [18+] Firends Mother 2 (2018) Korean 720p HDRip x264 850MB -137xHD torrent if not working, try downloading torrent using Download [18+] Firends Mother 2 (2018) Korean 720p HDRip x264 850MB -137xHD via Magnet Link




Torrent Description

http://hdfilmboss.mobi/
http://1337xhd.com/



Official Website http://hdfilmboss.mobi/
Official Website http://1337xhd.com/



General
Format : Matroska
Format version : Version 4
File size : 888 MiB
Duration : 1 h 24 min
Overall bit rate mode : Variable
Overall bit rate : 1 472 kb/s
Movie name : www.HDFilmBoss.Mobi
Encoded date : UTC 2018-12-06 07:03:31
Writing library : libebml v1.3.6 + libmatroska v1.4.9 / Lavf56.40.101

Video
ID : 1
Format : AVC
Format/Info : Advanced Video Codec
Format profile : [email protected]
Format settings : CABAC / 4 Ref Frames
Format settings, CABAC : Yes
Format settings, RefFrames : 4 frames
Codec ID : V_MPEG4/ISO/AVC
Duration : 1 h 24 min
Bit rate : 1 390 kb/s
Width : 1 280 pixels
Height : 720 pixels
Display aspect ratio : 16:9
Frame rate mode : Variable
Frame rate : 30.000 FPS
Color space : YUV
Chroma subsampling : 4:2:0
Bit depth : 8 bits
Scan type : Progressive
Bits/(Pixel*Frame) : 0.050
Stream size : 839 MiB (94%)
Title : www.1337xHD.Com
Writing library : x264 core 142 r2495 6a301b6
Language : English
Default : Yes
Forced : No

Audio
ID : 2
Format : Vorbis
Format settings, Floor : 1
Codec ID : A_VORBIS
Duration : 1 h 24 min
Bit rate mode : Variable
Bit rate : 112 kb/s
Channel(s) : 2 channels
Sampling rate : 44.1 kHz
Frame rate : 48.159 FPS (916 SPF)
Compression mode : Lossy
Stream size : 47.9 MiB (5%)
Title : www.1337xHD.Com
Writing application : Lavc56.60.100
Writing library : libVorbis (Omnipresent) (20120203 (Omnipresent))
Language : Korean
Default : Yes
Forced : No








#1337xHD -> To avoid fakes, ALWAYS check that the torrent was added on wisehealth-me.site by 1337xHD

http://wisehealth-me.site/



Download [18+] Firends Mother 2 (2018) Korean 720p HDRip x264 850MB -137xHD torrent


Comments (please add your comment)
No comments



Home - Browse Torrents - Upload Torrent - Stat - Forum - FAQ - Login
wisehealth-me.site is in compliance with copyrights
2006-2018 wisehealth-me.site
SitemapLaura D'Arista Adam | natural Burma/ Chinese Jade (jadeite) hand carved jade pendant - See Video. 2 | 06.11.1820:32 Uhr Death Space Action0 / 0370 Hits VID P2P DDL 0 Kommentare ethical communication - 3399 Words | A Computer Nerd - 380 Words | └ Toys & Games